Post Reply 
 
Thread Rating:
  • 0 Vote(s) - 0 Average
  • 1
  • 2
  • 3
  • 4
  • 5
Trouble with minimserver on Pioneer N50
12-11-2014, 09:41
Post: #11
RE: Trouble with minimserver on Pioneer N50
I have same problem aslike Volkerpf post #1. One of all tracks mistake album look like:

Code:
sumin@htpc:~$ metaflac --list --block-number=0 "/home/sumin/udata/lossless/Bee Gees - One Night Only (2013) [96-24]/01 - You Should Be Dancing.flac"
METADATA block #0
  type: 0 (STREAMINFO)
  is last: false
  length: 34
  minimum blocksize: 4096 samples
  maximum blocksize: 4096 samples
  minimum framesize: 16 bytes
  maximum framesize: 18582 bytes
  sample_rate: 96000 Hz
  channels: 2
  bits-per-sample: 24
  total samples: 15138560
  MD5 signature: cf7fde42d4e96e9732e57ecbda1f44de
No any art work in this folder.

You can down above file :
Code:
https://drive.google.com/file/d/0B9Gy0UguRVevTkktcXFLZnNqRjg/view?usp=sharing
Find all posts by this user
Quote this message in a reply
12-11-2014, 09:55
Post: #12
RE: Trouble with minimserver on Pioneer N50
(12-11-2014 09:41)notfourgo Wrote:  I have same problem aslike Volkerpf post #1. One of all tracks mistake album look like:

Code:
sumin@htpc:~$ metaflac --list --block-number=0 "/home/sumin/udata/lossless/Bee Gees - One Night Only (2013) [96-24]/01 - You Should Be Dancing.flac"
METADATA block #0
  type: 0 (STREAMINFO)
  is last: false
  length: 34
  minimum blocksize: 4096 samples
  maximum blocksize: 4096 samples
  minimum framesize: 16 bytes
  maximum framesize: 18582 bytes
  sample_rate: 96000 Hz
  channels: 2
  bits-per-sample: 24
  total samples: 15138560
  MD5 signature: cf7fde42d4e96e9732e57ecbda1f44de
No any art work in this folder.

You can down above file :
Code:
https://drive.google.com/file/d/0B9Gy0UguRVevTkktcXFLZnNqRjg/view?usp=sharing

The metaflac output is fine. Please see this post for the solution.
Find all posts by this user
Quote this message in a reply
12-11-2014, 10:06
Post: #13
RE: Trouble with minimserver on Pioneer N50
Thx simoncn.

But in my case, in folder missing album, no any file artwork like cover.jpg, folder.jpg ...

So I up missing file to check if you can.
Find all posts by this user
Quote this message in a reply
12-11-2014, 22:49
Post: #14
RE: Trouble with minimserver on Pioneer N50
(12-11-2014 10:06)notfourgo Wrote:  Thx simoncn.

But in my case, in folder missing album, no any file artwork like cover.jpg, folder.jpg ...

So I up missing file to check if you can.

The file you posted contains an embedded album art image with resolution 1417 x 1417 pixels. This image is too large for the Pioneer to handle.
Find all posts by this user
Quote this message in a reply
13-11-2014, 03:15
Post: #15
RE: Trouble with minimserver on Pioneer N50
Thx Simoncn.

Can you tell me how to fix by cli ? I use ubuntu.
Find all posts by this user
Quote this message in a reply
13-11-2014, 08:48
Post: #16
RE: Trouble with minimserver on Pioneer N50
(13-11-2014 03:15)notfourgo Wrote:  Thx Simoncn.

Can you tell me how to fix by cli ? I use ubuntu.

You would need to use a tagging program such as puddletag to remove or change the embedded artwork in your files.
Find all posts by this user
Quote this message in a reply
11-01-2015, 23:35 (This post was last modified: 11-01-2015 23:37 by pedroboe.)
Post: #17
RE: Trouble with minimserver on Pioneer N50
Hi All

First post here. Glad to see I'm not the only one, but I am using the new N50A model and my problem is only with some DSD albums. The first one was a Strauss/Pittsburgh Symphony TOne poems. I would get an "unspecified error" message and also the unit would reboot. I got one to one support from Native DSD and they sent me individual tracks and seemed to work fine. The problem seemed to be in how the pioneer "perceived" the whole package...Now, I just downloaded four albums from highresaudio.jp and the same problem appears. I resized the cover art photos, but so far no luck. Thanks for your help.
I'm not so great at coding and stuff but if there is a tag editor that works with DSF files, I could look for info.
Find all posts by this user
Quote this message in a reply
12-01-2015, 10:00
Post: #18
RE: Trouble with minimserver on Pioneer N50
(11-01-2015 23:35)pedroboe Wrote:  Hi All

First post here. Glad to see I'm not the only one, but I am using the new N50A model and my problem is only with some DSD albums. The first one was a Strauss/Pittsburgh Symphony TOne poems. I would get an "unspecified error" message and also the unit would reboot. I got one to one support from Native DSD and they sent me individual tracks and seemed to work fine. The problem seemed to be in how the pioneer "perceived" the whole package...Now, I just downloaded four albums from highresaudio.jp and the same problem appears. I resized the cover art photos, but so far no luck. Thanks for your help.
I'm not so great at coding and stuff but if there is a tag editor that works with DSF files, I could look for info.

You should be able to use Mp3tag (Windows) or Metadatics (Mac) to edit DSF files.
Find all posts by this user
Quote this message in a reply
Post Reply 


Forum Jump:


User(s) browsing this thread: 1 Guest(s)